TNG.br7s

Complete name : The.Nice.Guys.2016.720p.BluRay.x264-SPARKS.SubEsp-MSTV.mkv
Format : Matroska
Format version : Version 4 / Version 2
File size : 5.46 GiB
Duration : 1h 55mn
Overall bit rate : 6 747 Kbps
Encoded date : UTC 2016-08-06 20:53:03
Writing application : mkvmerge v8.3.0 (\'Over the Horizon\') 64bit
Writing library : libebml v1.3.1 + libmatroska v1.4.2

Video
ID : 1
Format : AVC
Format/Info : Advanced Video Codec
Format profile : High@L4.1
Format settings, CABAC : Yes
Format settings, ReFrames : 5 frames
Codec ID : V_MPEG4/ISO/AVC
Duration : 1h 55mn
Bit rate : 5 237 Kbps
Width : 1 280 pixels
Height : 536 pixels
Display aspect ratio : 2.40:1
Frame rate mode : Constant
Frame rate : 23.976 fps
Color space : YUV
Chroma subsampling : 4:2:0
Bit depth : 8 bits
Scan type : Progressive
Bits/(Pixel*Frame) : 0.318
Stream size : 4.24 GiB (78%)
Writing library : x264 core 148 r2692 64f4e24
Encoding settings : cabac=1 / ref=5 / deblock=1:0:0 / analyse=0x3:0x133 / me=umh / subme=7 / psy=1 / psy_rd=1.00:0.00 / mixed_ref=1 / me_range=16 / chroma_me=1 / trellis=1 / 8x8dct=1 / cqm=0 / deadzone=21,11 / fast_pskip=0 / chroma_qp_offset=-2 / threads=17 / lookahead_threads=2 / sliced_threads=0 / nr=0 / decimate=1 / interlaced=0 / bluray_compat=0 / constrained_intra=0 / bframes=3 / b_pyramid=2 / b_adapt=1 / b_bias=0 / direct=1 / weightb=1 / open_gop=0 / weightp=2 / keyint=250 / keyint_min=23 / scenecut=40 / intra_refresh=0 / rc_lookahead=40 / rc=2pass / mbtree=1 / bitrate=5237 / ratetol=1.0 / qcomp=0.60 / qpmin=0 / qpmax=69 / qpstep=4 / cplxblur=20.0 / qblur=0.5 / ip_ratio=1.40 / aq=1:1.00
Language : English
Default : Yes
Forced : No

Audio
ID : 2
Format : DTS
Format/Info : Digital Theater Systems
Mode : 16
Format settings, Endianness : Big
Codec ID : A_DTS
Duration : 1h 55mn
Bit rate mode : Constant
Bit rate : 1 509 Kbps
Channel(s) : 6 channels
Channel positions : Front: L C R, Side: L R, LFE
Sampling rate : 48.0 KHz
Frame rate : 93.750 fps (512 spf)
Bit depth : 24 bits
Compression mode : Lossy
Stream size : 1.22 GiB (22%)
Language : English
Default : Yes
Forced : No

Menu
00:00:00.000 : en:00:00:00.000
00:10:41.683 : en:00:10:41.683
00:21:07.308 : en:00:21:07.308
00:29:12.876 : en:00:29:12.876
00:40:12.744 : en:00:40:12.744
00:50:50.464 : en:00:50:50.464
01:01:02.033 : en:01:01:02.033
01:10:15.420 : en:01:10:15.420
01:19:59.086 : en:01:19:59.086
01:29:40.709 : en:01:29:40.709
01:40:10.338 : en:01:40:10.338
01:48:35.801 : en:01:48:35.801
01:50:49.977 : en:01:50:49.977
Apóyanos!
Si vas a comprar una cuenta premium en uno de estos servidores, hazlo desde estos enlaces:

Support us!
If you gonna buy a premium account, please do it following these links:



http://rapidgator.net/account/registration/ref/53761



http://ul.to/ref/2972605



http://uploadrocket.net/free11835.html


Gracias!
Thank you!


Reportar Error Visitas: 118