TC2.bdxs.bras

Complete name : The.Conjuring.2.2016.BDRip.x264-SPARKS.SubEsp-MSTV.mkv
Format : Matroska
Format version : Version 4 / Version 2
File size : 692 MiB
Duration : 2h 13mn
Overall bit rate : 722 Kbps
Encoded date : UTC 2016-08-27 00:21:38
Writing application : mkvmerge v8.3.0 (\'Over the Horizon\') 64bit
Writing library : libebml v1.3.1 + libmatroska v1.4.2

Video
ID : 1
Format : AVC
Format/Info : Advanced Video Codec
Format profile : High@L3.1
Format settings, CABAC : Yes
Format settings, ReFrames : 5 frames
Codec ID : V_MPEG4/ISO/AVC
Duration : 2h 13mn
Bit rate : 614 Kbps
Width : 720 pixels
Height : 300 pixels
Display aspect ratio : 2.40:1
Frame rate mode : Constant
Frame rate : 23.976 fps
Color space : YUV
Chroma subsampling : 4:2:0
Bit depth : 8 bits
Scan type : Progressive
Bits/(Pixel*Frame) : 0.119
Stream size : 588 MiB (85%)
Title : X264
Writing library : x264 core 148 r2692 64f4e24
Encoding settings : cabac=1 / ref=5 / deblock=1:-2:-2 / analyse=0x3:0x113 / me=umh / subme=8 / psy=1 / psy_rd=0.90:0.00 / mixed_ref=1 / me_range=16 / chroma_me=1 / trellis=1 / 8x8dct=1 / cqm=0 / deadzone=21,11 / fast_pskip=1 / chroma_qp_offset=-2 / threads=9 / lookahead_threads=1 / sliced_threads=0 / nr=0 / decimate=1 / interlaced=0 / bluray_compat=0 / constrained_intra=0 / bframes=3 / b_pyramid=2 / b_adapt=2 / b_bias=0 / direct=3 / weightb=1 / open_gop=0 / weightp=2 / keyint=250 / keyint_min=23 / scenecut=40 / intra_refresh=0 / rc_lookahead=50 / rc=crf / mbtree=1 / crf=19.0 / qcomp=0.60 / qpmin=0 / qpmax=69 / qpstep=4 / ip_ratio=1.40 / aq=1:1.00
Language : English
Default : Yes
Forced : No
Color range : Limited
Matrix coefficients : BT.709

Audio
ID : 2
Format : AAC
Format/Info : Advanced Audio Codec
Format profile : LC
Codec ID : A_AAC
Duration : 2h 13mn
Bit rate : 106 Kbps
Channel(s) : 2 channels
Channel positions : Front: L R
Sampling rate : 48.0 KHz
Frame rate : 46.875 fps (1024 spf)
Compression mode : Lossy
Stream size : 102 MiB (15%)
Language : English
Default : Yes
Forced : No

Menu
00:00:00.000 : en:00:00:00.000
00:08:24.671 : en:00:08:24.671
00:18:40.703 : en:00:18:40.703
00:28:34.212 : en:00:28:34.212
00:40:01.399 : en:00:40:01.399
00:48:46.841 : en:00:48:46.841
01:02:14.314 : en:01:02:14.314
01:09:29.665 : en:01:09:29.665
01:21:55.869 : en:01:21:55.869
01:29:26.486 : en:01:29:26.486
01:38:53.469 : en:01:38:53.469
01:48:15.364 : en:01:48:15.364
02:03:10.508 : en:02:03:10.508
02:07:36.816 : en:02:07:36.816
Complete name : The.Conjuring.2.2016.BRRip.XviD.AC3-EVO.SubEsp-MSTV.avi
Format : AVI
Format/Info : Audio Video Interleave
File size : 1.52 GiB
Duration : 2h 13mn
Overall bit rate : 1 630 Kbps
Writing library : VirtualDub build 32593/release

Video
ID : 0
Format : MPEG-4 Visual
Format profile : Advanced Simple@L5
Format settings, BVOP : 2
Format settings, QPel : No
Format settings, GMC : No warppoints
Format settings, Matrix : Default (H.263)
Muxing mode : Packed bitstream
Codec ID : XVID
Codec ID/Hint : XviD
Duration : 2h 13mn
Bit rate : 1 236 Kbps
Width : 720 pixels
Height : 304 pixels
Display aspect ratio : 2.35:1
Frame rate : 23.976 (23976/1000) fps
Color space : YUV
Chroma subsampling : 4:2:0
Bit depth : 8 bits
Scan type : Progressive
Compression mode : Lossy
Bits/(Pixel*Frame) : 0.236
Stream size : 1.16 GiB (76%)
Writing library : XviD 66

Audio
ID : 1
Format : AC-3
Format/Info : Audio Coding 3
Mode extension : CM (complete main)
Format settings, Endianness : Big
Codec ID : 2000
Duration : 2h 13mn
Bit rate mode : Constant
Bit rate : 384 Kbps
Channel(s) : 6 channels
Channel positions : Front: L C R, Side: L R, LFE
Sampling rate : 48.0 KHz
Frame rate : 31.250 fps (1536 spf)
Compression mode : Lossy
Stream size : 368 MiB (24%)
Alignment : Aligned on interleaves
Interleave, duration : 42 ms (1.00 video frame)
Interleave, preload duratio : 512 ms
Apóyanos!
Si vas a comprar una cuenta premium en uno de estos servidores, hazlo desde estos enlaces:

Support us!
If you gonna buy a premium account, please do it following these links:



http://rapidgator.net/account/registration/ref/53761



http://ul.to/ref/2972605



http://uploadrocket.net/free11835.html


Gracias!
Thank you!

Reportar Error Visitas: 84